East European Music new forum: www.e-rock.ru

forum "East Rock"

Объявление

Форум переезжает на другой ресурс www.e-rock.ru убедительная просьба скопируйте свои публикации со старого форума на новый WARNING! The Forum moved to new address: www.e-rock.ru New Publications and restoring old at www.e-rock.ru

Информация о пользователе

Привет, Гость! Войдите или зарегистрируйтесь.


Вы здесь » forum "East Rock" » Poland » Lombard


Lombard

Сообщений 1 страница 7 из 7

1

"Lombard" - "Live" (1983)

http://s41.radikal.ru/i091/0904/3b/e4d58f8d7ff9.jpg

Tracklist:

1.Nasz ostatni taniec
2.Znowu radio
3.Bye, bye Jimi
4.Słowa chore od słów
5.Radość spóźniona
6.Przeżyj to sam,
7.Diamentowa kula
8.Taniec pingwina na szkle
9.Nowy tytan
10.Czekanie na pożar
11.Śmierć dyskotece

Состав:

Foryś, Zbigniew - bass guitar; 
Ostrowska, Małgorzata  - vocal; 
Pahl, Przemysław  - drums; 
Stróżniak, Grzegorz  - keyboards, vocal; 
Zander, Piotr - gitara

Size: 421MB (5% data repair)
Format: FLAC

Скрытый текст:

Для просмотра скрытого текста - войдите или зарегистрируйтесь.

"Lombard" - "Szara Maść" (1983)

http://s57.radikal.ru/i158/0904/92/0a4cf9e45acd.jpg

Tracklist:

1.Stan gotowości
2.Plaża fok
3.Bezcieleśni - bezszelestni
4.Darwiniści
5.Wąwóz Kolorado
6.Czeski film
7.Szara maść
8.EKG

Состав:

Foryś, Zbigniew - bass guitar, keyboards; 
Kempf, Włodzimierz - drums; 
Ostrowska, Małgorzata - vocal; 
Stróżniak, Grzegorz - vocal, keyboards; 
Zander, Piotr - guitar

Quality: 16bit 44.1kHz
Size: 234MB (5% data repair)

Скрытый текст:

Для просмотра скрытого текста - войдите или зарегистрируйтесь.

Quality: 24bit 96kHz
Size: 603MB (5% data repair)

Скрытый текст:

Для просмотра скрытого текста - войдите или зарегистрируйтесь.

Отредактировано kaak (2009-04-09 09:25:16)

2

"Lombard" - "Anatomia" (1985)

http://s50.radikal.ru/i127/0904/4f/6412399be322.jpg

Tracklist:

1.Anatomia - Ja płynę, płynę
2.Ckliwy melodramat
3.Gołębi puch
4.Mam dość
5.Wstęga Mobiusa
6.Kryształowa
7.5 Lipca
8.Anka
9.Zaklęty sejf
10.Spal go
11.Nasz ostatni taniec (bonus track)
12.Kto mi zapłaci za łzy? (bonus track)
13.Płonąca stodoła (bonus track)

Состав:

Kempf, Włodzimierz - drums; 
Ostrowska, Małgorzata - vocal; 
Stróżniak, Grzegorz - vocal, keyboards; 
Zander, Piotr - guitar 

Size: 340MB (5% data repair)
Format: FLAC

Скрытый текст:

Для просмотра скрытого текста - войдите или зарегистрируйтесь.

Отредактировано kaak (2009-04-08 09:53:41)

3

спасибо)) концертник я  слышал, но номерной альбом как откровение)
для удобства прослушивания выкладываю кю шит, данные сокращены до целых чисел
REM GENRE Pop Rock/New Wave
REM DATE 1984
REM COMMENT Vinyl Rip16/44.1 Savitor SVT 012
PERFORMER "Lombard"
TITLE "Szara Masc"
FILE "Strona_A.wav" WAVE
  TRACK 01 AUDIO
    TITLE "Stan gotowosci"
    INDEX 01 00:00:00
  TRACK 02 AUDIO
    TITLE "Plaza Fok"
    INDEX 01 05:55:00
  TRACK 03 AUDIO
    TITLE "Bezcielesni - Bezszelestni"
    INDEX 01 10:48:00
  TRACK 04 AUDIO
    TITLE "Darwinisci"
    INDEX 01 15:40:00
FILE "Strona_B.wav" WAVE
  TRACK 05 AUDIO
    TITLE "Wawoz Kolorado"
    INDEX 01 00:00:00
  TRACK 06 AUDIO
    TITLE "Czeski Film"
    INDEX 01 06:40:00
  TRACK 07 AUDIO
    TITLE "Szara Masc"
    INDEX 01 11:35:00
  TRACK 08 AUDIO
    TITLE "EKG"
    INDEX 01 16:09:00

4

Для тех, кого смущает в некоторых постах 0 коррекция смещения!
Это, легко исправить:
1) качаешь программу cue tools
2) 0 смещение отображается щелчком ,только,в концептуальным и нон-стоп альбомах, т.к. недостающие сэмплы приходятся на конец трэка
3)исходные файлы (файл) конвертируешь обратно в вав и,соответственно, исправляешь кю шит
4)открываешь прогу, смотришь в логе название привода и, соответственно, в digital audio смещение для данного привода
5) щелкаешь на вкладку advanced setting и ставишь там это смещение, в вкладке кю указываешь на исходный кю (уже исправленный на аудио)
6) в опциях ставишь выходной формат (флак,вав) и тип рипа (или один файл или несколько с откорректированными или нет зазорами) и щелкаешь на конверт, на вопрос отвечаешь да и все
7) на выходе готов файл с уже откорртированным смещением
Enjoy)))
ps cue tools

Отредактировано lomik70 (2009-04-08 11:34:31)

5

dzieki za lombard ... szukalem live bo to naprawde kawal solidnego grania

Отредактировано DAVE (2009-04-08 15:39:03)

6

Lombard - Wolne od cła (1984)
_______________________________________________________________________________________________

> http://s40.radikal.ru/i088/0907/14/df826cd58d56.jpg <

_______________________________________________________________________________________________

LOSSLESS (image+.cue)

Скрытый текст:

Для просмотра скрытого текста - войдите или зарегистрируйтесь.

Artworks ;

Скрытый текст:

Для просмотра скрытого текста - войдите или зарегистрируйтесь.

_____________________________________________

Жанр: Rock 'n' roll
Год выпуска диска: 1984
Производитель диска: Made in Poland
Аудио кодек: WAVE - codec = Monkey's Audio
Тип рипа: image+.cue
Битрейт аудио: lossless

Zbigniew Foryś • bg
Małgorzata Ostrowska • voc
Przemysław Pahl • dr
Grzegorz Stróżniak • clav / synth
Piotr Zander • g

Отчет EAC:

Код:
Plik sprawozdania ze zgrywania programem EAC z 11. Lipca 2009, 19:01 dla płyty
Lombard / Wolne od cla

Użyty napęd: LITE-ON DVDRW SOHW-1693S   Adapter: 1  ID: 0
Tryb odczytu: Pewny BEZ C2, z dokładnym strumieniem, wyłączone buforowanie
Korekta położenia dla odczytu: 12
Nadczytywanie w obszarach LeadIn i LeadOut  : Nie

Użyty format wyjściowy: Monkey's Audio Lossless Encoder v3.99 DLL
                     Normal Lossless Compression

Inne opcje: 
    Dopełnienie ciszą brakujących przesuniętych próbek  : Tak
    Usuwanie początkowych i końcowych bloków ciszy  : Nie
    Wewnętrzny interfejs Win32 dla Windows NT i 2000


Stan i błędy  zakresu
Wybrany zakres
     Ścieżka pliku D:\_z _Ripy\Lombard - Wolne od cla.ape

     Poziom wysterowania 100.0 %
     Jakość zakresu 100.0 %
     Suma kontrolna CC36C865
     Kopia bezbłędna

Nie było błędów

Koniec raportu
 
01. Lombard - [Wolne od cla #01] Wolne od cła [3:11]
02. Lombard - [Wolne od cla #02] Miny na pokaz, czyny za grosz [3:08]
03. Lombard - [Wolne od cla #03] Dwa słowa, dwa światy [6:44]
04. Lombard - [Wolne od cla #04] Adriatyk, ocean goracy [6:41]
05. Lombard - [Wolne od cla #05] Aku-Hara, kraj ze snu [4:28]
06. Lombard - [Wolne od cla #06] Kradzież nie popłaca [5:09]
07. Lombard - [Wolne od cla #07] Skąd ja to znam [3:57]
08. Lombard - [Wolne od cla #08] Dalej, coraz dalej [4:33]
09. Lombard - [Wolne od cla #09] Szklana pogoda [3:30]
10. Lombard - [Wolne od cla #10] Droga pani z TV [4:02]
11. Lombard - [Wolne od cla #11] Posłanie do pana A. [4:20]
 
Total time ; 45:28,37

292 MB


__________________________________________________

Отредактировано TakTakToJa (2009-07-15 00:48:24)

7

Спасибо!!
:crazyfun:
Есть ли у вас "Rocking The East (1991) ?


Вы здесь » forum "East Rock" » Poland » Lombard