East European Music new forum: www.e-rock.ru

forum "East Rock"

Объявление

Форум переезжает на другой ресурс www.e-rock.ru убедительная просьба скопируйте свои публикации со старого форума на новый WARNING! The Forum moved to new address: www.e-rock.ru New Publications and restoring old at www.e-rock.ru

Информация о пользователе

Привет, Гость! Войдите или зарегистрируйтесь.


Вы здесь » forum "East Rock" » Bulgaria » Конкурент


Конкурент

Сообщений 1 страница 19 из 19

1

http://konkurentrockband.com/
http://i039.radikal.ru/0806/13/5b278878b533.jpg

Конкурент - дискография

1989 - Конкурент (LP)
1995 - Нещо Влажно
2002 - Бягство От Рая
2006 - 20 Години По-Късно (Live DVD)
2007 - Дай Ми Време - Най-Доброто от Конкурент


http://s52.radikal.ru/i136/0906/9d/7ad2957be461.jpg

2

http://s40.radikal.ru/i088/0810/c6/495274747026.jpg
http://s61.radikal.ru/i172/0810/e9/4586e1349a2e.jpg
Конкурент - 2007 - Дай Ми Време - Най-Доброто от Конкурент (2CD)

CD1
01. Дай Ми Време   
02. Не, Не Си Отивай   
03. Чакам Други Дни   
04. Мама    
05. Нещо Влажно   
06. Конницата   
07. Кой Ли?   
08. Върни Се   
09. Конкурент   
10. Паяка

CD2
01. Вземи Ме С Теб   
02. Раздяла   
03. Можеш Ли   
04. Уличка От Мечти    
05. Всеки Ден   
06. Без Твоята Любов   
07. Падащ Ангел   
08. Дай Шанс   
09. Сбъдната Мечта

CD1 & CD2
http://e-r.ifolder.ru/29442179
http://e-r.ifolder.ru/29442182

http://s52.radikal.ru/i136/0906/9d/7ad2957be461.jpg

3

Сканы обложек компиляции - полный комплект.
Конкурент - "Най-доброто" http://rapidshare.com/files/150756750/S … t.rar.html

4

Всё прекрасно только неплохо-бы стиль указывать хотя-бы короткой строкой типа Хард.Прог.Джаз или Эстрада

5

хард рок

Но вообще-то есть ссылка на оф. сайт группы, я думал что все понятно.

6

Antiquar написал(а):

Режим чтения: Скоростной

Эх жаль с настройками еака беда, а альбомчик то неплохой :(

7

2 German

Грабил в "походных" условиях.
CD стоит на полке. Переделать?

8

Antiquar написал(а):

Переделать?

Если не затруднит...
Буду премного и премного благодарен!!!

9

Exact Audio Copy V0.99 prebeta 4 from 23. January 2008

EAC extraction logfile from 8. December 2008, 20:08

Konkurent / Give Me Time

Used drive  : Optiarc DVD RW AD-7203A   Adapter: 0  ID: 0

Read mode               : Secure
Utilize accurate stream : Yes
Defeat audio cache      : Yes
Make use of C2 pointers : No

Read offset correction                      : 48
Overread into Lead-In and Lead-Out          : No
Fill up missing offset samples with silence : Yes
Delete leading and trailing silent blocks   : No
Null samples used in CRC calculations       : Yes
Used interface                              : Installed external ASPI interface

Used output format              : User Defined Encoder
Selected bitrate                : 320 kBit/s
Quality                         : High
Add ID3 tag                     : No
Command line compressor         : C:\Program Files\FLAC\flac.exe
Additional command line options : -V -8 -T "artist=%a" -T "title=%t" -T "album=%g" -T "date=%y" -T "tracknumber=%n" -T "genre=%m" %s

TOC of the extracted CD

     Track |   Start  |  Length  | Start sector | End sector
    ---------------------------------------------------------
        1  |  0:00.00 |  4:45.70 |         0    |    21444   
        2  |  4:45.70 |  4:46.44 |     21445    |    42938   
        3  |  9:32.39 |  4:27.30 |     42939    |    62993   
        4  | 13:59.69 |  5:49.70 |     62994    |    89238   
        5  | 19:49.64 |  4:26.18 |     89239    |   109206   
        6  | 24:16.07 |  4:37.20 |    109207    |   130001   
        7  | 28:53.27 |  4:11.50 |    130002    |   148876   
        8  | 33:05.02 |  5:55.21 |    148877    |   175522   
        9  | 39:00.23 |  7:11.62 |    175523    |   207909   
       10  | 46:12.10 |  3:40.28 |    207910    |   224437   

Range status and errors

Selected range

     Filename F:\Lossless\Konkurent-2007\CD1\Konkurent - Give Me Time.wav

     Peak level 100.0 %
     Range quality 100.0 %
     Test CRC A25AB919
     Copy CRC A25AB919
     Copy OK

No errors occurred

End of status report

Переграбил + перезалил

10

Если надо обложки 600dpi - добавлю.

11

Спасибо!!! Уже тяну...

12

Спасибо!!!

:crazyfun:

13

Виталий, спасибо за Конкурентов!
Оболожки конечно надо!

14

Antiquar написал(а):

1989 - Конкурент (LP)
1995 - Нещо Влажно
2002 - Бягство От Рая
2006 - 20 Години По-Късно (Live DVD)
2007 - Дай Ми Време - Най-Доброто от Конкурент

Туда тоже ошибка, извините но годы запуска тоже неточние! Вот правильние:

1989 - Българският рок 2 (совместная пластинка с ЕРА)
1994 - Нещо Влажно
1995 - Something Wet (английская версия альбома Нещо влажно)
2002 - Бягство От Рая
2006 - 20 Години По-Късно (совмествой Live DVD с ЕРА и Ахат)
2007 - Дай Ми Време - Най-Доброто от Конкурент

15

Я взял информацию с оф.сайта.
Кроме этого CD у меня нет ничего.
Проверить не могу.

16

Ясен прав, дискография действительно такая, как он указывает. Летом надеюсь привезти из Болгарии пластинку Българският рок 2 с Конкурентом (кроме нее у меня есть еще 1 и 3, их тоже постараюсь привезти) и оцифровать. У меня по моему был еще м альбом 94 года на кассете, если найду, тоже привезу. И если все удачно сложится, выложу на форум.

17

Да, у меня тоже есть ета пластинка "Българкият рок 2" , но к сожалению не могу цифровизировать ее - у меня только неособено качественой рип...
Была и аудиокасета, но она у меня тоже нет - только обложка нашел ранше...

Но когда вышло в 2006 году ето ДВД совмествого концерта ЕРА, АХАТ и Конкурент - там внутри были положени качествение мп3 на Ера, которие были в ета пластинка а в сборной двойной бест СД на Конкурент из 2007-мом году -  "Дай ми време" нашли место тех, которие были от стороне Конкурента в етой легендарной пластинкой...

Антон - да, точно с 1994 вышла касетка альбома "Нещо влажно" - обложка красная, а на следушщий год - в 1995г. появилась английская версия альбома, уже названа "Something wet"...
Ето очень редко встречаемий СД, а болгаркая вресия "Нещо влажно" тоже был и там СД, но он тоже не может найти никак - у меня только аудиокасета есть в архиве....

Антон - замечательная у вас  с Бориса работа - очень обрадовался когда нашел твой блог с пластинками 60-80 году.Собирался писать тебе писмо, но так и не нашел време до сих пор об етом...
Очень рад, что в етот форум бывают люди, которие любят и ценят болгарскую музику и в частност наш рок :-)

Попробуюсь сейчас показать вам те обложки Конкурента, о которие я говорю :

http://media.snimka.bg/2529/011312609.jpg
http://media.snimka.bg/2530/011315574.jpg
http://media.snimka.bg/2529/011312616.jpg
http://media.snimka.bg/2529/011312627.jpg
http://media.snimka.bg/2529/011312637.jpg

Отредактировано Ясен (2009-03-29 17:44:41)

18

Let me prepare a Bulgarian Rock special radio show immediately !!

19

I have all fantastic demos of KONKURENT and rarities

email - batonrouge@abv.bg


Вы здесь » forum "East Rock" » Bulgaria » Конкурент